#TITLE:마해;
#SUBTITLE:;
#ARTIST:Wonder Girls;
#TITLETRANSLIT:Tell Me;
#SUBTITLETRANSLIT:;
#ARTISTTRANSLIT:Wonder Girls;
#CREDIT:;
#BANNER:Tell Me-bn.png;
#BACKGROUND:Tell Me-bg.png;
#LYRICSPATH:;
#CDTITLE:pm4cd.png;
#MUSIC:Tell Me.mp3;
#OFFSET:0.060;
#SAMPLESTART:49.160;
#SAMPLELENGTH:20.000;
#SELECTABLE:YES;
#BPMS:0.000=127.000;
#STOPS:;
#BGCHANGES:;
// cache tags:
#FIRSTBEAT:1.000;
#LASTBEAT:455.750;
#SONGFILENAME:Songs/Music V.I.P ^_^/Tell Me/Tell Me.sm;
#HASMUSIC:1;
#HASBANNER:1;
#MUSICLENGTH:216.973;
// end cache tags

//---------------dance-single - ----------------
#NOTES:
     dance-single:
     :
     Hard:
     9:
     0.945,0.919,1.000,0.300,1.000,947.000,420.000,65.000,0.000,139.000:
0000
0000
0000
0000
0100
0000
1000
0000
0010
0000
0000
0000
0000
0100
0000
1000
,
0000
0100
0000
0010
0000
0000
0000
0001
0000
1100
0000
0010
0010
0000
1000
1000
,
0000
0111
0000
1010
0000
0100
0000
0010
0000
0101
0000
1000
0000
0100
0000
0010
,
0000
1001
0000
0010
0000
0001
0000
0100
0000
1010
0000
1010
0000
0101
0000
1000
,
0000
0101
0000
0010
0000
0101
0000
1000
0000
0011
0000
0100
0000
0011
0000
1000
,
0000
0101
0000
0010
0000
0001
0000
0010
0000
1100
0000
1100
0000
0011
0000
0100
,
0000
1001
0000
0010
0000
0100
0000
0010
0000
0101
0000
1000
0000
0100
0000
0010
,
0000
1001
0000
0010
0000
0100
0000
1000
0000
0110
0000
1001
0000
0110
0000
0001
,
0000
1100
0000
0010
0000
0001
0000
0100
0000
1010
0000
0100
0000
0010
0000
0001
,
0000
1100
0000
0010
0000
0001
0000
0010
0000
1100
0000
0110
0000
0011
0000
1000
,
0000
0010
0000
0100
0000
0011
0000
1000
0000
0100
0000
0001
0000
1010
0000
0001
,
0000
0100
0000
0010
0000
1100
0000
0010
0000
0101
0000
1010
0000
0101
0000
0010
,
0000
0100
0000
1000
0000
0011
0000
0100
0000
1000
0000
0100
0000
1001
0000
0010
,
0000
1000
0000
0010
0000
0101
0000
1000
0000
0011
0000
0110
0000
1100
0000
0001
,
0000
0100
0000
0010
0000
1100
0000
0010
0000
0100
0000
1000
0000
0101
0000
1000
,
0000
0010
0000
0100
0000
1001
0000
0010
0000
1100
0000
0110
0000
1001
0000
0010
,
0000
1000
0000
0100
0000
0011
0000
0100
0000
0011
0000
0001
0000
0011
0000
0001
,
0000
1100
0000
1000
0000
1100
0000
1000
0000
0110
0000
0110
0000
1001
0000
0010
,
0000
2100
0000
0010
0000
0001
0000
0010
0000
0101
0000
0010
0000
0001
0000
0010
,
0000
0101
0000
0010
0000
0001
0000
0010
0000
0101
0000
0011
0000
3101
0000
1000
,
0000
0012
0000
1000
0000
0100
0000
0010
0000
1100
0000
1000
0000
0100
0000
0010
,
0000
1100
0000
1000
0000
0100
0000
0010
0000
1100
0000
0110
0000
1103
0000
0001
,
0000
0210
0000
0001
0000
0010
0000
1000
0000
1010
0000
0001
0000
0010
0000
1000
,
0000
1010
0000
0001
0000
0010
0000
1000
0000
1010
0000
0011
0000
1301
0000
0010
,
0000
0101
0000
0010
0000
0100
0000
1000
0000
0011
0000
0100
0000
0010
0000
0001
,
0000
1010
0000
0100
0000
0010
0000
1000
0000
0101
0000
0101
0000
0101
0000
0000
,
0000
2100
0000
0000
0000
0210
0000
0000
3300
0102
0000
0000
0000
2100
0000
0000
,
0000
3113
0000
1000
1100
0000
0001
0011
0000
1010
0000
0101
0000
1001
0000
0000
,
0000
0020
0000
0100
0000
0001
0000
0100
0000
1001
0000
1001
0000
0131
0000
1000
,
0000
0100
0000
0010
0000
0100
0000
0010
0000
0101
0000
1100
0000
0011
0000
0000
,
0210
0000
0000
0000
0021
0000
0000
0330
0000
2001
0000
0000
0000
0210
0000
0000
,
0000
3311
0001
0011
1000
1100
1000
1100
0000
0101
0000
1010
0000
1001
0000
0200
,
0000
0010
0000
1000
0000
0011
0000
1000
0000
0010
0000
0001
0000
0011
0000
1000
,
0000
1001
0000
0011
0000
1310
0000
0001
0000
0010
0000
0100
0000
1001
0000
0000
,
0021
0000
0000
0000
0201
0000
0000
0330
0000
0210
0000
0000
0000
2001
0000
0000
,
0000
3311
0000
0100
0101
0000
0010
1010
0000
0110
0000
1001
0000
0110
0000
0001
,
0000
2000
0000
0010
0000
0100
0000
0010
0000
0101
0000
0010
0000
0001
0000
0100
,
0000
3211
0000
1000
0000
0010
0000
1000
0000
0011
0000
1000
0000
0010
0000
0001
,
0000
1320
0000
0000
0000
0102
0000
0000
0033
0012
0000
0000
0000
0120
0000
0000
,
0000
1133
0100
0101
0010
0011
0001
0101
0000
1100
0000
0011
0000
1100
0000
0010
,
0000
0002
0000
1000
0000
0100
0000
1000
0000
0110
0000
1000
0000
0100
0000
0010
,
0000
1100
0000
0010
0000
0100
0000
0010
0000
1100
0000
0110
0000
1023
0000
0100
,
0000
1030
0000
0100
0000
0011
0000
0100
0000
0001
0000
0010
0000
1100
0000
0001
,
0000
0100
0000
0010
0000
0101
0000
1000
0000
0101
0000
1010
0000
0101
0000
0010
,
0000
0100
0000
0010
0000
1100
0000
0001
0000
0100
0000
0010
0000
1001
0000
0100
,
0000
1000
0000
0010
0000
1001
0000
0100
0000
0011
0000
1100
0000
0011
0000
1000
,
0000
0101
0000
0010
0000
0001
0000
0010
0000
1100
0000
0001
0000
0010
0000
0001
,
0000
0110
0000
1000
0000
0100
0000
0010
0000
0101
0000
0011
0000
0101
0000
0010
,
0000
0100
0000
0001
0000
1010
0000
0100
0000
1000
0000
0010
0000
1100
0000
0001
,
0000
0010
0000
1000
0000
0101
0000
0010
0000
1100
0000
0110
0000
0011
0000
0100
,
0000
2000
0000
0010
0000
0100
0000
0010
0000
0101
0000
0010
0000
0100
0000
0001
,
0000
0110
0000
0001
0000
0010
0000
0001
0000
0110
0000
0101
0000
0011
0000
0010
,
0000
3201
0000
0010
0000
1000
0000
0001
0000
1010
0000
0001
0000
0010
0000
0001
,
0000
1010
0000
0001
0000
0010
0000
1000
0000
0011
0000
1010
0000
1301
0000
0100
,
0000
0020
0000
1000
0000
0100
0000
0001
0000
1100
0000
0001
0000
1000
0000
0100
,
0000
1001
0000
0100
0000
0001
0000
1000
0000
0101
0000
1100
0000
0131
0000
0010
,
0000
1100
0000
0010
0000
0100
0000
0010
0000
1001
0000
0010
0000
1000
0000
0010
,
0000
0201
0000
0010
0000
1000
0000
0010
0000
1001
0000
1010
0001
0010
0001
0010
,
0300
0012
0000
0000
0000
1200
0000
0000
0303
0210
0000
0000
0000
2001
0000
0000
,
0000
3311
0000
0010
0011
0000
0100
1100
0000
0011
0000
0110
0000
1100
0000
0010
,
0000
2000
0000
0100
0000
0010
0000
0100
0000
0011
0000
0100
0000
0010
0000
0001
,
0000
3120
0000
1000
0000
0100
0000
1000
0000
0101
0000
1001
0000
0101
0000
1030
,
0000
0210
0000
0000
0000
2010
0000
0000
3300
0102
0000
0000
0000
2010
0000
0000
,
0000
3113
0010
0110
0100
0110
0010
0011
0000
1100
0000
0011
0000
1100
0000
0001
,
0000
0020
0000
1000
0000
0001
0000
1000
0000
0101
0000
1000
0000
0100
0000
0001
,
0000
1100
0000
0001
0000
1000
0000
0100
0000
1001
0000
1100
0000
0132
0000
0010
,
0000
2103
0000
0000
0000
0210
0000
0000
3300
2010
0000
0000
0000
0012
0000
0000
,
0000
3113
0000
1000
1001
0000
0001
1001
0000
0110
0000
1001
0000
0110
0000
1000
,
0000
0200
0000
1000
0000
0010
0000
0001
0000
1010
0000
0001
0000
0010
0000
1000
,
0000
0312
0000
1000
0000
0100
0000
1000
0000
0110
0000
1100
0000
1010
0000
0103
,
0000
0120
0000
0000
0000
0102
0000
0000
0033
2001
0000
0000
0000
0120
0000
0000
,
0000
3131
0100
0110
0010
0011
0001
0101
0000
1001
0000
0110
0000
1001
0000
0100
,
0000
0020
0000
0001
0000
0100
0000
0001
0000
1100
0000
0001
0000
1000
0000
0100
,
0000
1001
0000
0100
0000
1000
0000
0001
0000
1130
0010
0100
0010
0100
0010
0100
,
0010
1101
0000
0010
0000
1100
0000
0001
0000
1010
0000
0100
0000
0011
0000
1000
,
0000
0101
0000
0010
0000
1100
0000
0010
0000
1001
0000
0110
0000
1001
0000
0010
,
0000
0101
0000
1000
0000
0011
0000
0100
0000
1010
0000
0100
0000
1001
0000
0010
,
0000
1100
0000
0010
0000
0101
0000
1000
0000
0011
0000
0110
0000
1100
0000
0010
,
0000
0101
0000
1000
0000
0011
0000
0100
0000
1010
0000
0001
0000
1100
0000
0010
,
0000
0101
0000
0010
0000
1001
0000
0010
0000
0101
0000
1010
0000
0101
0000
0010
,
0000
1100
0000
0001
0000
1010
0000
0100
0000
0011
0000
1000
0000
0101
0000
0010
,
0000
1100
0010
0001
0010
1100
0010
0001
0010
1100
0010
0001
0010
1100
0010
0001
,
0010
1100
0000
0001
0000
0110
0000
0100
0000
1010
0000
0001
0000
0101
0000
0010
,
0000
1100
0000
0001
0000
0101
0000
0010
0000
1010
0000
0100
0000
0011
0000
1000
,
0000
0101
0000
0010
0000
1010
0000
0100
0000
0101
0000
1000
0000
0011
0000
0100
,
0000
0110
0000
0001
0000
0110
0000
1000
0000
0101
0000
1000
0000
0101
0000
0010
,
0000
1000
0100
0010
0001
0010
0100
1000
0100
0010
0001
0010
0100
1000
0100
0010
,
0001
1100
0000
0010
0000
0101
0000
0010
0000
1100
0000
0011
0000
0110
0000
1000
,
0000
0001
0010
0100
1000
0100
0010
0001
0010
0100
1000
0100
0010
0001
0010
0100
,
1000
0101
0000
0010
0000
1100
0000
0001
0000
0101
0000
1010
0000
0011
0000
0100
,
0000
1000
0100
0010
0001
0010
0100
1000
0100
0010
0001
0010
0100
1000
0100
0010
,
0001
1100
0001
0010
0100
1000
0100
0010
0001
0010
0100
1000
0100
0010
0001
0010
,
0100
0010
0001
0010
0000
0100
0010
0001
0010
0100
1000
0100
0010
0001
0010
0100
,
1000
0100
0010
0001
0010
0100
1000
0100
0010
1001
0000
0101
0000
1010
0000
0100
,
0000
2100
0000
0000
0000
0012
0000
0000
3003
0210
0000
0000
0000
2001
0000
0000
,
0000
3311
0000
0001
0011
0000
1000
1100
0000
0011
0000
0110
0000
0011
0000
1000
,
0000
0200
0000
0001
0000
0010
0000
0001
0000
1010
0000
0001
0000
0010
0000
1000
,
0000
0011
0000
1000
0000
0010
0000
0001
0000
1010
0001
0010
0001
0010
0001
0010
,
0001
2310
0000
0000
0000
0201
0000
0000
3300
0021
0000
0000
0000
2001
0000
0000
,
0000
3131
0001
0011
0010
0110
0100
1100
0000
1010
0000
0110
0000
0101
0000
0010
,
0000
0002
0000
1000
0000
0100
0000
0010
0000
1100
0000
0010
0000
0100
0000
1000
,
0000
0110
0000
1000
0000
0010
0000
0100
0000
1013
0000
0101
0000
1010
0100
1000
,
0100
1001
0000
0110
0000
1100
0000
0110
0000
0011
0000
1010
0000
0101
0000
0011
,
0000
0110
0000
1000
1010
0000
0001
0101
0000
0011
0000
0110
0000
0011
0000
1001
,
0000
1010
0000
0101
0000
0110
0000
1010
0000
1001
0000
0101
0000
0011
0000
0101
,
0000
1100
0000
1010
0000
1001
0000
0011
0000
1100
0000
0110
0000
1010
0000
0101
,
0000
0011
0000
0110
0000
1100
0000
0011
0000
0110
0000
1001
0000
1010
0000
0101
,
0000
1001
0001
0011
0010
0110
0010
0011
0000
1100
0000
1010
0000
1100
0000
1010
,
0000
1002
0000
0110
0000
1100
0000
1010
0000
0110
0000
1010
0000
1100
0000
0110
,
0000
1100
0000
0110
0000
1010
0000
0110
0000
1010
0000
1100
0000
1023
0000
0101
,
0000
1100
0000
0101
0000
1001
0000
1100
0000
0101
0000
1100
0000
0101
0000
1100
,
0000
1001
0000
0100
1100
0000
0100
0101
0000
1001
0000
1100
0000
1031
0000
0110
,
0000
2100
0000
0010
0011
0000
0100
0110
0000
0001
0000
0010
0000
0100
0000
0010
,
0000
0001
0000
0000
0000
0000
0000
0000
0000
0000
0000
0000
0000
0000
0000
3000
;

//---------------dance-single - ----------------
#NOTES:
     dance-single:
     :
     Easy:
     1:
     0.000,0.000,0.000,0.000,0.000,0.000,0.000,0.000,0.000,0.000:
0000
0000
0000
0000
;

//---------------dance-single - Copied from----------------
#NOTES:
     dance-single:
     Copied from:
     Medium:
     1:
     0.000,0.000,0.000,0.000,0.000,0.000,0.000,0.000,0.000,0.000:
0000
0000
0000
0000
;
